<?xml version="1.0" standalone="no"?>
<!DOCTYPE svg PUBLIC "-//W3C//DTD SVG 1.1//EN" "http://www.w3.org/Graphics/SVG/1.1/DTD/svg11.dtd">
<svg xmlns="http://www.w3.org/2000/svg">
<metadata>Generated by Fontastic.me</metadata>
<defs>
<font id="admin-icons-font" horiz-adv-x="512">
<font-face font-family="admin-icons-font" units-per-em="512" ascent="480" descent="-32"/>
<missing-glyph horiz-adv-x="512" />

<glyph unicode="&#99;" d="M146 73l220 0 0 110-220 0z m229 146c15 0 27-12 27-27l0-119 37 0 0 256c0 6-6 18-9 21l-80 80c-3 3-15 9-21 9l0-119c0-15-12-27-27-27l-165 0c-15 0-27 12-27 27l0 119-37 0 0-366 37 0 0 119c0 15 12 27 27 27z m-92 110c5 0 10 4 10 9l0 92c0 5-5 9-10 9l-54 0c-5 0-10-4-10-9l0-92c0-5 5-9 10-9z m-246 119c0 15 12 27 27 27l265 0c17 0 38-10 47-19l80-80c9-9 19-30 19-47l0-265c0-15-12-27-27-27l-384 0c-15 0-27 12-27 27z"/>
<glyph unicode="&#100;" d="M393 73l-73-73 0 192 192 0-73-73 73-74-45-45z m-393 247l73 73-72 73 45 45 73-72 73 73 0-192z m0-275l73 74-73 73 192 0 0-192-73 73-74-73z m320 275l0 192 73-73 73 72 45-45-72-73 73-73z"/>
<glyph unicode="&#97;" d="M439 119l73 73 0-192-192 0 73 73-73 74 45 45z m-247 393l-73-73 72-73-45-45-73 72-73-73 0 192z m0-365l-73-74 73-73-192 0 0 192 73-73 74 73z m320 365l0-192-73 73-73-72-45 45 72 73-73 73z"/>
<glyph unicode="&#98;" d="M192 311c5 0 9-4 9-9l0-165c0-5-4-9-9-9l-18 0c-5 0-9 4-9 9l0 165c0 5 4 9 9 9z m73 0c5 0 9-4 9-9l0-165c0-5-4-9-9-9l-18 0c-5 0-9 4-9 9l0 165c0 5 4 9 9 9z m73 0c5 0 9-4 9-9l0-165c0-5-4-9-9-9l-18 0c-5 0-9 4-9 9l0 165c0 5 4 9 9 9z m46-216l0 271-256 0 0-271c0-7 3-15 6-19 1-2 2-3 3-3l238 0c6 0 9 15 9 22z m-192 307l128 0-14 34c-1 2-3 3-5 3l-90 0c-2 0-4-1-5-3z m256 0c5 0 9-4 9-9l0-18c0-5-4-9-9-9l-27 0 0-271c0-28-19-58-46-58l-238 0c-27 0-46 29-46 57l0 272-27 0c-5 0-9 4-9 9l0 18c0 5 4 9 9 9l88 0 20 48c5 12 21 25 38 25l92 0c17 0 33-13 38-25l20-48z"/>
<glyph unicode="&#97;" d="M0 28l484 484 28-28-484-484z m0 484l187 0 0-187-187 0z m0-228l187 0-187-187z m227 228l186 0-186-187z m213-168l72 72 0-72z m-48-43l120 0 0-72-120 0 0 20 0-20-72 0z m-110-115l230 0 0-71-230 0 0 21 0-21-71 0z m-114-114l344 0 0-72-344 0 0 19 0-19-72 0z"/>
<glyph unicode="&#98;" d="M128 416l-32-32-64 64 0 32 32 0z m32 96l32 0 0-64-32 0z m128-160l64 0 0-32-64 0z m32 96l-64-64-32 32 64 64 32 0z m-320-96l64 0 0-32-64 0z m160-128l32 0 0-64-32 0z m-128 0l64 64 32-32-64-64-32 0z m473-153c9-9 9-25 0-34l-30-30c-9-9-25-9-34 0l-318 318c-9 9-9 25 0 34l30 30c9 9 25 9 34 0z m-265 169l32 32-96 96-32-32z"/>
<glyph unicode="&#99;" d="M146 73l220 0 0 110-220 0z m229 146c15 0 27-12 27-27l0-119 37 0 0 256c0 6-6 18-9 21l-80 80c-3 3-15 9-21 9l0-119c0-15-12-27-27-27l-165 0c-15 0-27 12-27 27l0 119-37 0 0-366 37 0 0 119c0 15 12 27 27 27z m-92 110c5 0 10 4 10 9l0 92c0 5-5 9-10 9l-54 0c-5 0-10-4-10-9l0-92c0-5 5-9 10-9z m-246 119c0 15 12 27 27 27l265 0c17 0 38-10 47-19l80-80c9-9 19-30 19-47l0-265c0-15-12-27-27-27l-384 0c-15 0-27 12-27 27z"/>
<glyph unicode="&#100;" d="M393 73l-73-73 0 192 192 0-73-73 73-74-45-45z m-393 247l73 73-72 73 45 45 73-72 73 73 0-192z m0-275l73 74-73 73 192 0 0-192-73 73-74-73z m320 275l0 192 73-73 73 72 45-45-72-73 73-73z"/>
<glyph unicode="&#101;" d="M357 219c-15 0-28 13-28 28l0 119-110 0 0-329 256 0 0 182z m-74 220c5 0 10 4 10 9l0 18c0 5-5 9-10 9l-201 0c-5 0-9-4-9-9l0-18c0-5 4-9 9-9z m83-183l85 0-85 85z m-28 256c15 0 28-12 28-27l0-94c4-2 7-5 10-8l117-117c9-9 19-30 19-47l0-192c0-15-12-27-27-27l-275 0c-15 0-27 12-27 27l0 46-156 0c-15 0-27 13-27 28l0 384c0 15 12 27 27 27z"/>
<glyph unicode="&#102;" d="M192 311c5 0 9-4 9-9l0-165c0-5-4-9-9-9l-18 0c-5 0-9 4-9 9l0 165c0 5 4 9 9 9z m73 0c5 0 9-4 9-9l0-165c0-5-4-9-9-9l-18 0c-5 0-9 4-9 9l0 165c0 5 4 9 9 9z m73 0c5 0 9-4 9-9l0-165c0-5-4-9-9-9l-18 0c-5 0-9 4-9 9l0 165c0 5 4 9 9 9z m46-216l0 271-256 0 0-271c0-7 3-15 6-19 1-2 2-3 3-3l238 0c6 0 9 15 9 22z m-192 307l128 0-14 34c-1 2-3 3-5 3l-90 0c-2 0-4-1-5-3z m256 0c5 0 9-4 9-9l0-18c0-5-4-9-9-9l-27 0 0-271c0-28-19-58-46-58l-238 0c-27 0-46 29-46 57l0 272-27 0c-5 0-9 4-9 9l0 18c0 5 4 9 9 9l88 0 20 48c5 12 21 25 38 25l92 0c17 0 33-13 38-25l20-48z"/>
<glyph unicode="&#103;" d="M439 119l73 73 0-192-192 0 73 73-73 74 45 45z m-247 393l-73-73 72-73-45-45-73 72-73-73 0 192z m0-365l-73-74 73-73-192 0 0 192 73-73 74 73z m320 365l0-192-73 73-73-72-45 45 72 73-73 73z"/>
<glyph unicode="&#104;" d="M239 119l90 103-205 0-90-103z m239 308c20 0 37-17 34-39-1-7-5-13-9-18l-238-273c-7-8-16-12-26-12l-205 0c-20 0-37 17-34 39 1 7 5 13 9 18l238 273c7 8 16 12 26 12z"/>
<glyph unicode="&#105;" d="M430 329c15 0 27-12 27-27l0-55c0-15-12-28-27-28l-119 0 0-118c0-15-13-28-28-28l-54 0c-15 0-28 13-28 28l0 118-119 0c-15 0-27 13-27 28l0 55c0 15 12 27 27 27l119 0 0 119c0 15 13 27 28 27l54 0c15 0 28-12 28-27l0-119z"/>
<glyph unicode="&#106;" d="M0 436l91 0 0-60-91 0z m0-100l91 0 0-60-91 0z m0-100l91 0 0-60-91 0z m0-100l91 0 0-60-91 0z m141 300l90 0 0-60-90 0z m0-100l90 0 0-60-90 0z m0-100l90 0 0-60-90 0z m0-100l90 0 0-60-90 0z m280 300l91 0 0-60-91 0z m0-100l91 0 0-60-91 0z m0-100l91 0 0-60-91 0z m0-100l91 0 0-60-91 0z m-140 300l90 0 0-60-90 0z m0-100l90 0 0-60-90 0z m0-100l90 0 0-60-90 0z m0-100l90 0 0-60-90 0z"/>
<glyph unicode="&#107;" d="M254 512c-90 0-170-46-216-116-9-14-16-28-23-43-6-15-11-31-14-47 0 0 0-1 0-1 0 0 0-1 0-1 0-3 3-6 6-6l52 0c2 0 5 2 6 5 14 57 55 105 109 130 10 4 21 8 32 11 16 4 32 6 48 6 13 0 26-1 39-4 2 0 4-1 7-1 3-1 5-1 7-2 3-1 5 0 7 2l25 45c1 0 1 1 1 2 1 3-1 6-4 7-10 4-22 7-33 9-2 0-5 1-7 1-13 2-27 4-42 4z m167-58c-2 0-4-1-5-3l-25-45c-2-3-1-6 1-8 15-15 28-32 38-51 2-3 3-8 5-11 10-24 16-50 16-77 0-40-12-77-32-107-4-7-8-12-13-18-5-5-9-11-14-15-2-2-3-5-1-7l25-45c0 0 1-1 1-1 2-3 6-3 8 0 30 26 54 59 69 97 3 7 6 15 8 22 7 24 11 48 11 74 0 55-18 107-48 149-5 8-11 16-19 24-6 7-13 14-21 21 0 0 0 0-1 0-1 1-2 1-3 1z m-415-240c0 0-1 0-1 0-3 0-5-4-4-7 17-85 76-155 154-188 15-6 31-11 48-14 16-3 34-5 51-5 20 0 40 3 60 7 3 1 7 2 11 3 4 1 7 2 11 4 0 0 1 0 1 0 3 2 4 5 2 9l-25 44c-2 2-4 4-7 3-7-2-14-4-21-5-2 0-3 0-4 0-9-2-18-3-27-3-66 0-124 33-160 82 0 0 0 0 0 1-7 10-13 20-18 31-5 10-9 22-12 33 0 3-3 6-6 6l-52 0z"/>
<glyph unicode="&#108;" d="M302 512c15 0 27-12 27-27l0-94c13 8 26 11 37 11l119 0c15 0 27-12 27-27l0-348c0-15-12-27-27-27l-275 0c-15 0-27 12-27 27l0 83-156 0c-15 0-27 12-27 27l0 192c0 17 10 38 19 47l117 117c9 9 30 19 47 19z m27-171l-85-85 85 0z m-183 110l-85-85 85 0z m37-94c0-15-13-28-28-28l-118 0 0-183 146 0 0 73c0 17 10 38 19 47l91 91 0 118-110 0z m183-110c0-15-13-28-28-28l-119 0 0-182 256 0 0 329-109 0z"/>
<glyph unicode="&#109;" d="M426 134c0-8-3-14-8-19l-39-39c-5-5-12-8-20-8-8 0-14 3-19 8l-84 84-84-84c-5-5-11-8-19-8-8 0-15 3-20 8l-39 39c-5 5-8 11-8 19 0 8 3 15 8 20l84 84-84 84c-5 5-8 11-8 19 0 8 3 15 8 20l39 38c5 5 12 8 20 8 8 0 14-3 19-8l84-84 84 84c5 5 11 8 19 8 8 0 15-3 20-8l39-38c5-5 8-12 8-20 0-8-3-14-8-19l-84-84 84-84c5-5 8-12 8-20z"/>
<glyph unicode="&#110;" d="M424 424c-37 37-65 31-65 31l-277-277-26-122 122 26 148 148 129 129c0 0 6 28-31 65z m-253-327l-42-9c-4 7-8 15-17 24-9 9-17 13-24 17l9 42 12 12c0 0 23 0 48-26 26-26 26-48 26-48z"/>
<glyph unicode="&#111;" d="M0 436l231 0 0-60-231 0z m0-100l231 0 0-60-231 0z m0-100l231 0 0-60-231 0z m0-100l231 0 0-60-231 0z m281 300l231 0 0-60-231 0z m0-100l231 0 0-60-231 0z m0-100l231 0 0-60-231 0z m0-100l231 0 0-60-231 0z"/>
<glyph unicode="&#112;" d="M0 436l91 0 0-60-91 0z m0-100l91 0 0-60-91 0z m0-100l91 0 0-60-91 0z m0-100l91 0 0-60-91 0z m141 300l371 0 0-60-371 0z m0-100l371 0 0-60-371 0z m0-100l371 0 0-60-371 0z m0-100l371 0 0-60-371 0z"/>
<glyph unicode="&#113;" d="M0 436l138 0 0-60-138 0z m0-100l138 0 0-60-138 0z m0-100l138 0 0-60-138 0z m0-100l138 0 0-60-138 0z m188 300l324 0 0-60-324 0z m0-100l324 0 0-60-324 0z m0-100l324 0 0-60-324 0z m0-100l324 0 0-60-324 0z"/>
<glyph unicode="&#114;" d="M0 436l512 0 0-60-512 0z m0-100l512 0 0-60-512 0z m0-100l512 0 0-60-512 0z m0-100l512 0 0-60-512 0z"/>
<glyph unicode="&#115;" d="M374 436l138 0 0-60-138 0z m0-100l138 0 0-60-138 0z m0-100l138 0 0-60-138 0z m0-100l138 0 0-60-138 0z m-374 300l324 0 0-60-324 0z m0-100l324 0 0-60-324 0z m0-100l324 0 0-60-324 0z m0-100l324 0 0-60-324 0z"/>
<glyph unicode="&#116;" d="M421 436l91 0 0-60-91 0z m0-100l91 0 0-60-91 0z m0-100l91 0 0-60-91 0z m0-100l91 0 0-60-91 0z m-421 300l371 0 0-60-371 0z m0-100l371 0 0-60-371 0z m0-100l371 0 0-60-371 0z m0-100l371 0 0-60-371 0z"/>
<glyph unicode="&#117;" d="M280 436l91 0 0-60-91 0z m0-100l91 0 0-60-91 0z m0-100l91 0 0-60-91 0z m0-100l91 0 0-60-91 0z m-280 300l230 0 0-60-230 0z m0-100l230 0 0-60-230 0z m0-100l230 0 0-60-230 0z m0-100l230 0 0-60-230 0z m421 300l91 0 0-60-91 0z m0-100l91 0 0-60-91 0z m0-100l91 0 0-60-91 0z m0-100l91 0 0-60-91 0z"/>
<glyph unicode="&#118;" d="M374 436l138 0 0-60-138 0z m0-100l138 0 0-60-138 0z m0-100l138 0 0-60-138 0z m0-100l138 0 0-60-138 0z m-187 300l137 0 0-60-137 0z m0-100l137 0 0-60-137 0z m0-100l137 0 0-60-137 0z m0-100l137 0 0-60-137 0z m-187 300l137 0 0-60-137 0z m0-100l137 0 0-60-137 0z m0-100l137 0 0-60-137 0z m0-100l137 0 0-60-137 0z"/>
<glyph unicode="&#119;" d="M0 436l91 0 0-60-91 0z m0-100l91 0 0-60-91 0z m0-100l91 0 0-60-91 0z m0-100l91 0 0-60-91 0z m141 300l230 0 0-60-230 0z m0-100l230 0 0-60-230 0z m0-100l230 0 0-60-230 0z m0-100l230 0 0-60-230 0z m280 300l91 0 0-60-91 0z m0-100l91 0 0-60-91 0z m0-100l91 0 0-60-91 0z m0-100l91 0 0-60-91 0z"/>
<glyph unicode="&#120;" d="M0 436l91 0 0-60-91 0z m0-100l91 0 0-60-91 0z m0-100l91 0 0-60-91 0z m0-100l91 0 0-60-91 0z m282 300l230 0 0-60-230 0z m0-100l230 0 0-60-230 0z m0-100l230 0 0-60-230 0z m0-100l230 0 0-60-230 0z m-141 300l91 0 0-60-91 0z m0-100l91 0 0-60-91 0z m0-100l91 0 0-60-91 0z m0-100l91 0 0-60-91 0z"/>
<glyph unicode="&#121;" d="M0 438l0-364 512 0 0 364z m488-340l-464 0 0 316 464 0z m-400 258l0-200 125 100z m197 0l50 0 0-200-50 0z m90 0l50 0 0-200-50 0z"/>
<glyph unicode="&#122;" d="M256 512c0 0 118-186 118-186 0 0-236 0-236 0 0 0 118 186 118 186m0-512c0 0-118 187-118 187 0 0 236 0 236 0 0 0-118-187-118-187"/>
<glyph unicode="&#65;" d="M361 237c-7-23-21-42-40-56-19-14-41-21-65-21-24 0-46 7-65 21-19 14-33 33-40 56-1 5-1 9 2 14 2 4 5 7 10 9 5 1 10 1 14-1 5-3 8-6 9-11 5-16 14-28 27-37 13-10 27-14 43-14 16 0 30 4 43 14 13 9 22 21 27 37 1 5 4 8 9 11 4 2 9 2 14 1 5-2 8-5 10-9 3-5 3-9 2-14z m-142 124c0-10-3-19-10-26-7-7-16-10-26-10-10 0-19 3-26 10-7 7-11 16-11 26 0 10 4 19 11 26 7 7 16 11 26 11 10 0 19-4 26-11 7-7 10-16 10-26z m147 0c0-10-4-19-11-26-7-7-16-10-26-10-10 0-19 3-26 10-7 7-10 16-10 26 0 10 3 19 10 26 7 7 16 11 26 11 10 0 19-4 26-11 7-7 11-16 11-26z m73-73c0 25-5 48-15 71-9 23-22 42-39 58-16 17-35 30-58 39-23 10-46 15-71 15-25 0-48-5-71-15-23-9-42-22-58-39-17-16-30-35-39-58-10-23-15-46-15-71 0-25 5-48 15-71 9-23 22-42 39-58 16-17 35-30 58-39 23-10 46-15 71-15 25 0 48 5 71 15 23 9 42 22 58 39 17 16 30 35 39 58 10 23 15 46 15 71z m36 0c0-40-9-77-29-110-20-34-46-60-80-80-33-20-70-29-110-29-40 0-77 9-110 29-34 20-60 46-80 80-20 33-29 70-29 110 0 40 9 77 29 110 20 34 46 60 80 80 33 20 70 29 110 29 40 0 77-9 110-29 34-20 60-46 80-80 20-33 29-70 29-110z"/>
<glyph unicode="&#66;" d="M476 0l-440 0c-20 0-36 16-36 36l0 440c0 20 16 36 36 36l440 0c20 0 36-16 36-36l0-440c0-20-16-36-36-36z m-440 488c-7 0-12-5-12-12l0-440c0-7 5-12 12-12l440 0c7 0 12 5 12 12l0 440c0 7-5 12-12 12z m-36-70l512 0 0-24-512 0z m433-54l-102 0c-13 0-24-11-24-24l0-262c0-13 11-24 24-24l102 0c13 0 24 11 24 24l0 262c0 13-11 24-24 24z"/>
<glyph unicode="&#67;" d="M45 167l422 0 0-40-422 0z m0-90l422 0 0-40-422 0z m-45 420l0-280 512 0 0 280z m300-241l-10 33-70 0-10-33-63 0 75 200 68 0 75-200z m-67 76l44 0-22 72z"/>
<glyph unicode="&#68;" d="M0 356l0-200 512 0 0 200z m153-150l-100 0 0 100 100 0z m153 0l-100 0 0 100 100 0z m153 0l-100 0 0 100 100 0z"/>
<glyph unicode="&#69;" d="M481 395c-12-19-28-34-46-47 0-3 1-7 1-12 0-25-4-50-11-74-7-25-18-49-33-72-15-22-32-42-53-59-20-18-45-31-73-42-29-10-60-16-93-15-51 0-98 14-141 41 6 0 14-1 22-1 43 0 81 13 115 40-20 0-38 6-54 18-16 12-27 27-33 46 6-1 12-2 18-2 8 0 16 1 24 3-21 5-39 15-53 32-15 17-22 36-21 59l0 1c12-7 26-11 41-12-13 9-23 19-30 33-8 13-11 28-11 44 0 17 4 32 12 46 24-28 52-51 84-68 33-17 68-26 106-28-1 7-2 14-2 21 0 25 9 47 27 65 18 18 40 27 66 27 27 0 49-9 67-29 21 4 41 12 59 23-7-22-21-39-41-51 18 2 36 7 54 14z"/>
<glyph unicode="&#70;" d="M121 284c16 0 30 14 30 31 0 17-14 31-30 31-17 0-30-14-30-31 0-17 13-31 30-31z m150 62l-59-92-27 29-95-59 242 0z m240-269l-1 302c0 27-25 28-25 28l-31 0-1-303-362 0 0-29c0-26 28-30 28-30l362 0c26 0 31 14 31 24l0 1c0 4-1 7-1 7z m-88 87l0 272c0 0-2 30-29 30l-364 0c-28 0-30-30-30-30l0-272c0 0 1-30 30-30l364 0c0 0 29 1 29 30z m-61 30l-301 0 0 212 301 0 0-212z"/>
<glyph unicode="&#71;" d="M456 0l-400 0 0 512 400 0z m-376 24l352 0 0 464-352 0z m261 179c0 6-1 12-2 17-2 5-4 10-6 14-2 4-6 8-10 12-4 3-8 6-11 9-3 2-8 5-14 7-6 3-10 5-14 7-3 1-8 3-14 6-6 2-10 3-13 5-3 1-7 2-11 4-5 3-8 4-10 6-3 2-5 4-8 6-2 3-4 5-5 8-1 2-2 5-2 9 0 8 4 15 11 20 8 5 17 8 28 8 6 0 11-1 16-2 5-2 10-3 14-5 3-2 7-4 10-6 4-2 6-4 7-5 2-1 3-2 3-2 2-1 3-2 5-1 2 0 3 1 4 3l15 26c1 3 1 5-1 7-1 1-2 2-3 3-1 1-3 2-7 5-3 3-7 5-11 7-4 2-10 4-16 6-7 2-13 3-20 4l0 32c0 2-1 3-2 4-1 1-2 2-4 2l-25 0c-1 0-3-1-4-2-1-1-1-2-1-4l0-33c-20-3-35-11-47-24-12-13-18-28-18-44 0-5 1-10 2-15 1-4 2-8 4-12 1-3 3-7 6-10 3-4 5-7 8-9 2-3 6-5 10-8 4-3 7-5 10-6 3-2 7-4 11-6 5-2 9-4 12-5 2-1 6-3 11-5 6-2 11-4 14-5 4-2 8-4 12-6 5-3 9-5 11-7 2-2 4-5 6-8 2-3 3-6 3-9 0-10-4-17-11-23-8-5-16-8-26-8-5 0-9 1-14 2-16 3-30 11-44 23l-1 0c-1 1-2 2-4 2-2 0-3-1-4-2l-19-25c-2-2-2-5 0-8 1 0 2-1 4-3 1-1 4-4 8-7 4-3 9-6 14-8 5-3 11-6 18-9 8-2 15-4 23-5l0-32c0-2 1-3 2-4 1-1 3-2 4-2l25 0c1 0 3 1 4 2 1 1 2 2 2 4l0 32c19 3 35 11 47 25 12 13 18 29 18 48z"/>
<glyph unicode="&#72;" d="M305 416l-161 0 0-161 161 0z m-160-224l223 0 0 32-223 0z m0-64l88 0 32 32-120 0z m303 384l-383 0c-26 0-48-22-48-48l0-416c0-26 22-48 48-48l148 0 0 64-132 0 0 384 351 0 0-243c8-8 36-37 64-65l0 324c0 26-22 48-48 48z m41-421l-57 56c-8 8-21 8-29 0-8-8-8-20 0-28l42-43-42-42c-8-7-8-20 0-28 4-4 9-6 14-6 5 0 11 2 15 6l57 56c4 4 6 9 6 14 0 6-2 11-6 15z m-153-57l-42 42 42 43c8 8 8 20 0 28-8 8-21 8-29 0l-57-56c-4-4-6-9-6-15 0-5 2-10 6-14l57-56c4-4 10-6 15-6 5 0 10 2 14 6 8 8 8 21 0 28z"/>
<glyph unicode="&#73;" d="M0 448l0-384 512 0 0 384z m96-352l-64 0 0 64 64 0z m0 128l-64 0 0 64 64 0z m0 128l-64 0 0 64 64 0z m288-256l-256 0 0 320 256 0z m96 0l-64 0 0 64 64 0z m0 128l-64 0 0 64 64 0z m0 128l-64 0 0 64 64 0z m-288 0l0-192 128 96z"/>
<glyph unicode="&#74;" d="M0 348l0-224 512 0 0 224z m488-200l-464 0 0 176 464 0z m-191 138l140 0 0-100-140 0z m-233-25l192 0 0-50-192 0z"/>
<glyph unicode="&#76;" d="M504 383l-120 75c-5 4-12 4-17 0l-111-69-111 69c-5 4-12 4-17 0l-120-75c-5-3-8-8-8-15l0-299c0-7 3-12 8-16 6-3 12-3 17 1l111 69 111-69c6-4 12-4 18 0l111 69 111-69c2-2 5-3 8-3 3 0 6 1 8 2 6 4 9 9 9 16l0 299c0 7-3 12-8 15z m-384-229l-87-54 0 259 87 53z m119-54l-86 54 0 258 86-53z m120 54l-86-54 0 259 86 53z m119-54l-86 54 0 258 86-53z"/>
<glyph unicode="&#77;" d="M52 334l460 0 0-24-460 0z m0-64l460 0 0-24-460 0z m0-64l460 0 0-24-460 0z m460-178l-512 0 0 104 512 0z m-488 24l464 0 0 56-464 0z m488 322l-512 0 0 104 512 0z m-488 24l464 0 0 56-464 0z"/>
<glyph unicode="&#78;" d="M0 280l512 0 0-48-512 0z"/>
<glyph unicode="&#79;" d="M0 384l128 0 0 128-128 0z m29 100l71 0 0-72-71 0z m-29-292l128 0 0 128-128 0z m29 100l71 0 0-71-71 0z m163 192l320 0 0-72-320 0z m0-192l320 0 0-71-320 0z m-192-291l128 0 0 128-128 0z m29 100l71 0 0-71-71 0z m163 0l320 0 0-71-320 0z"/>
<glyph unicode="&#80;" d="M409 432l-35 0c1-6 1-12 1-18 0-5 0-11-1-17l35 0c1 0 2-1 2-2l0-358c0-2-1-3-2-3l-308 0c-2 0-3 1-3 3l0 358c0 1 1 2 3 2l35 0c-1 6-1 12-1 17 0 6 0 12 1 18l-35 0c-21 0-37-17-37-37l0-358c0-21 16-37 37-37l308 0c20 0 37 16 37 37l0 358c0 20-17 37-37 37z m-251-18c0-53 43-96 97-96 53 0 97 43 97 96 0 51-38 92-87 97-3 0-7 0-10 0-3 0-7 0-10 0-49-5-87-46-87-97z m97 63c34 0 62-28 62-63 0-34-28-62-62-62-34 0-62 28-62 62 0 35 28 63 62 63z m94-211l-194 0c-10 0-17-7-17-17 0-10 7-17 17-17l194 0c9 0 17 7 17 17 0 10-8 17-17 17z m0-74l-194 0c-10 0-17-8-17-18 0-9 7-17 17-17l194 0c9 0 17 8 17 17 0 10-8 18-17 18z m0-75l-194 0c-10 0-17-7-17-17 0-10 7-17 17-17l194 0c9 0 17 7 17 17 0 10-8 17-17 17z"/>
<glyph unicode="&#81;" d="M480 450c-8 8-18 12-29 12l-410 0c-11 0-21-4-29-12-8-8-12-18-12-29l0-313c0-11 4-21 12-29 8-8 18-12 29-12l157 0 33 33-190 0c-2 0-4 1-6 2-1 2-2 4-2 6l0 313c0 2 1 4 2 6 2 1 4 2 6 2l410 0c2 0 4-1 6-2 2-2 2-4 2-6l0-229 33-36 0 265c0 11-4 21-12 29z m-365-153c14 0 25 5 35 15 9 9 14 21 14 35 0 13-5 25-14 35-10 9-22 14-35 14-14 0-25-5-35-14-10-10-14-22-14-35 0-14 4-26 14-35 10-10 21-15 35-15z m270-7l-65 65-131-132-41 41-82-82 0-49 162 0z m121-199l-57 56c-8 8-21 8-29 0-8-8-8-21 0-28l43-43-43-42c-8-8-8-20 0-28 4-4 9-6 14-6 5 0 11 2 15 6l57 56c4 4 6 9 6 14 0 6-2 11-6 15z m-195-15l43 43c8 8 8 20 0 28-8 8-21 8-29 0l-58-56c-4-4-6-9-6-15 0-5 2-10 6-14l58-56c4-4 9-6 14-6 5 0 11 2 15 6 8 8 8 21 0 28z"/>
<glyph unicode="&#82;" d="M319 349c0 35-28 63-63 63-35 0-62-28-62-63 0-34 27-62 62-62 35 0 63 28 63 62z m20-83l-11 0-65-132 24 121-31 32-31-32 24-121-65 132-11 0c-42 0-42-28-42-63l0-104 250 0 0 104c0 35 0 63-42 63z m98 65l-25-25 50-50-50-50 25-25 75 75z m-337-25l-25 25-75-75 75-75 25 25-50 50z"/>
<glyph unicode="&#83;" d="M461 461l-410 0c-28 0-51-23-51-51l0-308c0-28 23-51 51-51l410 0c28 0 51 23 51 51l0 308c0 28-23 51-51 51z m0-359l-410 0 0 308 410 0z m-231 100l-128 0 0-46 128 0z m0 77l-128 0 0-46 128 0z m0 77l-128 0 0-46 128 0z m177-164c0 0-43 11-43 34 0 21 28 30 28 74 0 35-11 56-46 56-36 0-46-21-46-56 0-44 28-53 28-74 0-23-44-34-44-34-2 0-2-36-2-36l128 0c0 0 0 36-3 36z"/>
<glyph unicode="&#84;" d="M508 416l-508 0 0-320 512 0 0 320z m-28-64l-126-92 126-99 0-33-10 0-143 113-67-49-10 0-67 49-142-113-9 0 0 34 124 98-124 90 0 34 15 0 208-151 208 151 17 0z"/>
<glyph unicode="&#85;" d="M489 415c-17 5-35-5-40-22l-2-9-299 0-4 36c-2 16-16 28-32 28l-80 0c-18 0-32-14-32-32 0-18 14-32 32-32l52 0 28-228c2-16 16-28 32-28l272 0c14 0 27 9 31 23l64 224c5 17-5 35-22 40z m-233-159l0 32 64 0 0-32z m64-32l0-32-64 0 0 32z m-64 96l0 32 64 0 0-32z m-104 32l72 0 0-32-68 0z m8-64l64 0 0-32-60 0z m8-64l56 0 0-32-52 0z m224-32l-40 0 0 32 49 0z m18 64l-58 0 0 32 67 0z m18 64l-76 0 0 32 86 0z m-300-272c0-27 21-48 48-48 27 0 48 21 48 48 0 27-21 48-48 48-27 0-48-21-48-48z m192 0c0-27 21-48 48-48 27 0 48 21 48 48 0 27-21 48-48 48-27 0-48-21-48-48z"/>
<glyph unicode="&#87;" d="M495 303l90-237-61 0-17 47-85 0-17-47-131 0-27 77-136 0-27-77-93 0 144 380 93 0 131-349 78 206z m-364-92l96 0-49 138z m304-54l59 0-30 85z"/>
<glyph unicode="&#88;" d="M0 204l512 0 0 104-512 0z m24 80l386 0 0 22 90 0 0-100-90 0 0 22-386 0z m386-78l90 0 0 100-90 0z m-410 266l0-104 512 0 0 104z m500-102l-145 0 0 22-331 0 0 56 331 0 0 22 145 0z m-145 78l0-78 145 0 0 100-145 0z m-355-408l512 0 0 104-512 0z m24 80l296 0 0 22 180 0 0-100-180 0 0 22-296 0z m296-78l180 0 0 100-180 0z"/>
<glyph unicode="&#89;" d="M0 480l0-448 512 0 0 448z m192-288l0 96 128 0 0-96z m128-32l0-96-128 0 0 96z m0 256l0-96-128 0 0 96z m-160 0l0-96-128 0 0 96z m-128-128l128 0 0-96-128 0z m320 0l128 0 0-96-128 0z m0 32l0 96 128 0 0-96z m-320-160l128 0 0-96-128 0z m320-96l0 96 128 0 0-96z"/>
<glyph unicode="&#90;" d="M338 457l-52 0c-13 0-24-11-24-24l0-12c0-13 11-24 24-24l52 0c13 0 24 11 24 24l0 12c0 13-11 24-24 24z m128 0l-52 0c-13 0-24-11-24-24l0-12c0-13 11-24 24-24l52 0c13 0 24 11 24 24l0 12c0 13-11 24-24 24z m10-84l-242 0 0 54c0 20-16 36-36 36l-162 0c-20 0-36-16-36-36l0-342c0-20 16-36 36-36l440 0c20 0 36 16 36 36l0 252c0 20-16 36-36 36z m12-288c0-7-5-12-12-12l-440 0c-7 0-12 5-12 12l0 342c0 7 5 12 12 12l162 0c7 0 12-5 12-12l0-78 266 0c7 0 12-5 12-12z m-42 202l-380 0c-7 0-12-5-12-12 0-7 5-12 12-12l380 0c7 0 12 5 12 12 0 7-5 12-12 12z m0-64l-380 0c-7 0-12-5-12-12 0-7 5-12 12-12l380 0c7 0 12 5 12 12 0 7-5 12-12 12z m0-64l-380 0c-7 0-12-5-12-12 0-7 5-12 12-12l380 0c7 0 12 5 12 12 0 7-5 12-12 12z"/>
<glyph unicode="&#48;" d="M490 502c-3 8-11 12-19 9-8-3-12-11-9-19 23-68-23-118-58-145l-14 21c-5 7-16 12-24 13l-80-1c-8 0-20-4-27-8l-234-166c-12-8-14-24-6-36l106-154c8-11 21-10 32-2l234 166c7 5 15 15 18 23l25 80c2 8 1 20-4 27l-9 12c47 36 96 101 69 180z m-109-236c-18-13-43-8-56 10-12 18-8 44 10 57 15 10 33 9 47-1-7-4-12-6-13-7-7-3-10-13-7-20 3-6 8-9 14-9 2 0 4 1 6 2 5 2 10 5 16 8 2-15-4-31-17-40z"/>
<glyph unicode="&#49;" d="M219 411l0-310c0-5-1-10-5-13-4-4-8-6-13-6-5 0-9 2-13 6l-95 95-75 0c-5 0-9 2-13 5-3 4-5 8-5 13l0 110c0 5 2 9 5 13 4 3 8 5 13 5l75 0 95 95c4 4 8 6 13 6 5 0 9-2 13-6 4-3 5-8 5-13z m110-155c0-14-4-28-12-40-8-13-19-22-32-27-2-1-4-2-7-2-5 0-10 2-13 6-4 3-6 8-6 13 0 4 2 7 4 10 2 3 5 5 8 7 3 2 7 4 10 7 3 2 6 5 8 10 2 4 4 10 4 16 0 6-2 12-4 16-2 5-5 8-8 10-3 3-7 5-10 7-3 2-6 4-8 7-2 3-4 6-4 10 0 5 2 10 6 13 3 4 8 6 13 6 3 0 5-1 7-2 13-5 24-14 32-26 8-13 12-27 12-41z m73 0c0-29-8-56-24-81-16-24-38-42-64-54-3-1-5-1-7-1-6 0-10 2-14 5-3 4-5 8-5 13 0 8 4 13 11 17 11 6 18 10 22 13 14 10 25 23 33 38 8 16 12 32 12 50 0 18-4 34-12 50-8 15-19 28-33 38-4 3-11 7-22 13-7 4-11 9-11 17 0 5 2 9 5 13 4 3 8 5 13 5 3 0 5 0 8-1 26-12 48-30 64-54 16-25 24-52 24-81z m73 0c0-44-12-84-36-121-24-36-56-63-96-81-3-1-5-1-8-1-5 0-9 2-13 5-3 4-5 8-5 13 0 7 4 13 11 17 1 1 3 2 6 3 3 1 6 2 7 3 9 5 16 10 23 15 24 17 42 39 55 64 13 26 20 54 20 83 0 29-7 57-20 83-13 25-31 47-55 64-7 5-14 10-23 15-1 1-4 2-7 3-3 1-5 2-6 3-7 4-11 10-11 17 0 5 2 9 5 13 4 3 8 5 13 5 3 0 5 0 8-1 40-18 72-45 96-81 24-37 36-77 36-121z"/>
<glyph unicode="&#50;" d="M366 256c0 7-3 12-9 15l-146 92c-6 4-12 4-19 0-6-3-9-8-9-16l0-182c0-8 3-13 9-16 3-2 6-3 9-3 4 0 7 1 10 3l146 92c6 3 9 8 9 15z m146 0c0-18 0-33 0-43 0-10-1-23-3-39-1-16-3-30-6-42-3-14-10-26-20-35-10-10-22-15-35-17-43-4-106-7-192-7-86 0-149 3-192 7-13 2-25 7-35 17-10 9-17 21-20 35-3 12-5 26-6 42-2 16-3 29-3 39 0 10 0 25 0 43 0 18 0 33 0 43 0 10 1 23 3 39 1 16 3 30 6 42 3 14 10 26 20 35 10 10 22 15 35 17 43 4 106 7 192 7 86 0 149-3 192-7 13-2 25-7 35-17 10-9 17-21 20-35 3-12 5-26 6-42 2-16 3-29 3-39 0-10 0-25 0-43z"/>
<glyph unicode="&#51;" d="M427 512l-342 0c-47 0-85-39-85-86l0-340c0-48 38-86 85-86l342 0c47 0 85 38 85 86l0 340c0 47-38 86-85 86z m-411-96l0 10c0 39 31 70 69 70l43 0 0-80z m224-248l-65 0 0-65-60 0 0 65-65 0 0 60 65 0 0 65 60 0 0-65 65 0z m0 248l-80 0 0 80 80 0z m32 80l80 0 0-80-80 0z m158-420l-71 0 0 170-67 0 0 50c43 2 76 13 82 59l56 0z m66 340l-112 0 0 80 43 0c38 0 69-31 69-70z"/>
<glyph unicode="&#53;" d="M215 239l78 0-40 107z m41 273c-141 0-256-115-256-256 0-141 115-256 256-256 141 0 256 115 256 256 0 141-115 256-256 256z m80-386l-25 65-114 0-24-65-61 0 112 286 61 0 114-286z"/>
<glyph unicode="&#54;" d="M171 373c0-14-5-26-15-36-10-10-22-15-37-15-14 0-26 5-36 15-10 10-15 22-15 36 0 15 5 27 15 37 10 10 22 15 36 15 15 0 27-5 37-15 10-10 15-22 15-37z m273-102l0-120-376 0 0 52 86 85 42-43 137 137z m25 188l-426 0c-3 0-5-1-6-3-2-2-3-4-3-6l0-324c0-2 1-4 3-6 1-2 3-3 6-3l426 0c3 0 5 1 6 3 2 2 3 4 3 6l0 324c0 2-1 4-3 6-1 2-3 3-6 3z m43-9l0-324c0-12-4-22-13-30-8-9-18-13-30-13l-426 0c-12 0-22 4-30 13-9 8-13 18-13 30l0 324c0 12 4 22 13 30 8 9 18 13 30 13l426 0c12 0 22-4 30-13 9-8 13-18 13-30z"/>
<glyph unicode="&#56;" d="M165 122l-14-13c-2-2-4-3-6-3-2 0-4 1-6 3l-124 124c-2 2-3 4-3 6 0 2 1 4 3 6l124 124c2 2 4 3 6 3 2 0 4-1 6-3l14-13c1-2 2-4 2-6 0-2-1-4-2-6l-105-105 105-105c1-2 2-4 2-6 0-2-1-4-2-6z m157 284l-99-344c-1-2-2-4-4-5-3-1-5-1-7-1l-16 5c-3 1-4 2-5 4-2 2-2 4-1 6l99 345c1 2 2 4 4 5 3 1 5 1 7 1l16-5c3-1 4-2 5-4 2-2 2-4 1-7z m175-173l-124-124c-2-2-4-3-6-3-2 0-4 1-6 3l-14 13c-1 2-2 4-2 6 0 2 1 4 2 6l105 105-105 105c-1 2-2 4-2 6 0 2 1 4 2 6l14 13c2 2 4 3 6 3 2 0 4-1 6-3l124-124c2-2 3-4 3-6 0-2-1-4-3-6z"/>
<glyph unicode="&#57;" d="M127 231l36-11c-5-20-14-36-27-45-13-10-30-15-50-15-25 0-45 8-61 25-16 17-24 40-24 69 0 31 8 55 24 73 16 17 37 25 63 25 23 0 42-6 56-20 8-8 15-19 19-34l-37-9c-2 10-7 17-14 23-7 5-16 8-25 8-14 0-25-5-34-15-9-10-13-26-13-48 0-23 4-40 13-50 8-10 19-15 33-15 10 0 18 3 26 9 7 7 12 17 15 30z m59-7l37 3c2-12 6-21 13-27 7-6 16-9 27-9 12 0 22 3 28 8 6 5 9 11 9 18 0 4-1 8-4 11-3 3-7 6-13 8-5 2-15 5-31 9-20 4-34 11-42 18-11 10-17 23-17 37 0 10 3 19 8 27 5 8 13 14 23 19 10 4 23 6 37 6 23 0 41-5 53-15 11-10 18-24 18-41l-37-2c-2 10-5 17-11 21-5 4-13 6-24 6-10 0-19-2-25-7-4-2-6-6-6-11 0-4 2-8 5-11 5-4 17-9 35-13 18-4 32-9 40-13 9-5 16-11 21-19 5-8 7-18 7-30 0-10-2-20-8-30-6-9-15-16-26-21-10-4-24-6-40-6-24 0-42 5-54 16-13 11-20 27-23 48z m174 0l36 3c2-12 7-21 14-27 6-6 15-9 27-9 12 0 21 3 27 8 6 5 9 11 9 18 0 4-1 8-4 11-2 3-7 6-13 8-4 2-14 5-30 9-20 4-34 11-43 18-11 10-17 23-17 37 0 10 3 19 8 27 6 8 13 14 24 19 10 4 22 6 36 6 24 0 41-5 53-15 12-10 18-24 19-41l-38-2c-2 10-5 17-10 21-6 4-14 6-24 6-11 0-20-2-26-7-4-2-6-6-6-11 0-4 2-8 6-11 5-4 16-9 34-13 19-4 32-9 41-13 9-5 16-11 20-19 5-8 8-18 8-30 0-10-3-20-9-30-6-9-14-16-25-21-11-4-24-6-41-6-23 0-41 5-54 16-12 11-20 27-22 48z"/>
<glyph unicode="&#33;" d="M186 426l0-245c0-12-1-23-4-35-2-11-7-22-15-31-7-9-17-16-30-21-13-6-30-9-51-9-31 0-53 10-66 29-14 18-20 42-20 70l0 17 42 0 0-6c0-9 0-17 2-25 1-9 3-16 6-23 3-7 8-12 14-16 7-4 15-6 25-6 36-1 53 24 52 74l0 227z m271-95c-1 22-9 38-23 49-15 11-31 17-48 17-9 0-18-1-27-2-8-1-16-4-24-9-7-3-13-9-18-16-5-7-8-17-8-28 0-10 3-18 9-25 6-6 13-12 23-16 10-4 21-7 33-10 12-3 24-5 36-8 27-5 50-14 70-26 10-7 17-16 23-27 5-11 8-25 8-41 0-26-10-50-29-70-20-22-51-33-93-34-38 0-70 8-95 26-26 18-39 48-39 90l40 0c2-26 11-45 27-59 16-13 36-19 61-19 9 0 18 1 28 2 9 2 18 5 26 9 9 5 16 11 21 19 5 8 8 19 8 33 0 11-3 20-8 27-6 7-13 12-23 16-10 4-21 8-32 10-12 3-25 6-38 8-12 3-24 6-36 10-12 4-23 9-33 15-10 7-17 16-23 26-6 11-9 24-9 39 1 33 12 57 36 73 22 16 49 24 79 24 41 0 71-10 91-29 19-19 28-43 28-74z"/>
<glyph unicode="&#45;" d="M149 115c-37-11-55 0-67 10-10 9-13 20-14 23-19-15-32-39-32-65 0-45 37-82 82-82 46 0 82 37 82 82 0 17-5 33-14 46-8-4-20-9-37-14z m308 325c-8 20-24 43-39 58-16 15-26 14-32 12-6-2-37-18-63-31-26-13-81-26-95-30-15-3-90-19-107-27-16-7-25-17-29-24-4-7-27-51-40-76-12-25-12-35-13-48-1-13 33-81 33-81 3 14 27 38 27 38 0 0 31 23 31 25 0 2-13 31-13 31 0 0 14 12 23 24 9 12 14 22 14 22 0 0 11 0 27 3 15 2 23 4 23 4 0 0 1 1 1-1 0-2 23-22 23-22 0 0-1-2-6-18-6-15-14-21-23-27-9-6-36-21-60-35-23-14-40-38-46-50-5-13-5-23-4-32 1-9 12-23 32-25 19-3 49 11 67 19 18 8 44 28 59 41 15 13 16 13 40 20 23 8 40 13 61 24 22 12 29 19 40 39 11 20 16 32 28 47 13 15 11 15 45 35 11 7 11 14 12 26 1 12-7 40-16 59z"/>
<glyph unicode="&#43;" d="M64 384l384 0 0-320-384 0z m0 64l32 0 0-32-32 0z m64 0l32 0 0-32-32 0z m64 0l32 0 0-32-32 0z m-192-448l512 0 0 512-512 0z m384 224l-64 0 0 96-128 0 0-96-64 0 128-128z"/>
<glyph unicode="&#61;" d="M64 384l384 0 0-320-384 0z m0 64l32 0 0-32-32 0z m64 0l32 0 0-32-32 0z m64 0l32 0 0-32-32 0z m-192-448l512 0 0 512-512 0z m192 96l128 0 0 96 64 0-128 128-128-128 64 0z"/>
<glyph unicode="&#36;" d="M256 475c40 0 77-9 110-29 34-20 60-46 80-80 20-33 29-70 29-110 0-40-9-77-29-110-20-34-46-60-80-80-33-20-70-29-110-29-40 0-77 9-110 29-34 20-60 46-80 80-20 33-29 70-29 110 0 40 9 77 29 110 20 34 46 60 80 80 33 20 70 29 110 29z m37-356l0 54c0 3-1 5-3 7-2 2-4 3-6 3l-55 0c-3 0-5-1-7-3-2-2-3-4-3-7l0-54c0-2 1-5 3-6 2-2 4-3 7-3l55 0c2 0 4 1 6 2 2 2 3 4 3 7z m-1 98l5 178c0 2-1 4-3 5-2 2-4 2-7 2l-62 0c-3 0-5 0-7-2-2-1-3-3-3-5l5-178c0-1 1-3 3-5 1-1 4-2 6-2l53 0c3 0 5 1 7 2 2 2 3 4 3 5z"/>
<glyph unicode="&#35;" d="M403 302c0 6-1 10-5 13l-26 26c-3 4-8 6-13 6-5 0-9-2-12-6l-117-116-65 64c-3 4-7 6-12 6-5 0-10-2-13-6l-26-25c-4-4-5-8-5-13 0-6 1-10 5-13l103-104c4-3 8-5 13-5 5 0 10 2 13 5l155 155c4 4 5 8 5 13z m72-46c0-40-9-77-29-110-20-34-46-60-80-80-33-20-70-29-110-29-40 0-77 9-110 29-34 20-60 46-80 80-20 33-29 70-29 110 0 40 9 77 29 110 20 34 46 60 80 80 33 20 70 29 110 29 40 0 77-9 110-29 34-20 60-46 80-80 20-33 29-70 29-110z"/>
<glyph unicode="&#38;" d="M435 435c15 0 27-5 37-15 9-10 14-22 14-36 0 0 0-307 0-307 0-14-5-26-14-36-10-10-22-15-37-15 0 0-358 0-358 0-14 0-26 5-36 15-10 10-15 22-15 36 0 0 0 307 0 307 0 14 5 26 15 36 10 10 22 15 36 15 0 0 23 0 23 0 0 0 0-51 0-51 0 0 82 0 82 0 0 0 0 51 0 51 0 0 149 0 149 0 0 0 0-51 0-51 0 0 82 0 82 0 0 0 0 51 0 51 0 0 22 0 22 0m0-358c0 0 0 205 0 205 0 0-358 0-358 0 0 0 0-205 0-205 0 0 358 0 358 0m-276 409c0 0 0-87 0-87 0 0-36 0-36 0 0 0 0 87 0 87 0 0 36 0 36 0m230 0c0 0 0-87 0-87 0 0-36 0-36 0 0 0 0 87 0 87 0 0 36 0 36 0"/>
<glyph unicode="&#39;" d="M288 466c58 0 107-21 148-62 40-40 61-90 61-148 0-58-21-108-61-148-41-41-90-62-148-62-47 0-90 15-129 45 0 0 36 39 36 39 28-20 59-31 93-31 43 0 80 16 110 46 31 31 46 68 46 111 0 44-15 81-46 112-30 30-67 46-110 46-43 0-79-15-109-44-31-30-47-66-48-108 0 0 73 0 73 0 0 0-94-105-94-105 0 0-95 105-95 105 0 0 64 0 64 0 1 57 22 105 63 145 40 39 89 59 146 59m-19-97c0 0 36 0 36 0 0 0 0-105 0-105 0 0 67-66 67-66 0 0-26-26-26-26 0 0-77 77-77 77 0 0 0 120 0 120"/>
<glyph unicode="&#40;" d="M32 480l448 0 0-448-448 0z m-32-480l512 0 0 512-512 0z m64 448l384 0 0-320-384 0z"/>
<glyph unicode="&#41;" d="M96 384l384 0 0-320-384 0z m320 64l0-48-336 0 0-272-48 0 0 320z"/>
<glyph unicode="&#44;" d="M185 266c0 0 0 47 0 47 0 0 144 0 144 0 0 0 0-47 0-47 0 0-144 0-144 0m199 252c14 0 26-5 36-14 10-10 15-22 15-37 0 0 0-358 0-358 0-14-5-26-15-36-10-10-22-15-36-15 0 0-256 0-256 0-14 0-26 5-36 15-10 10-15 22-15 36 0 0 0 358 0 358 0 15 5 27 15 37 10 9 22 14 36 14 0 0 256 0 256 0m0-409c0 0 0 358 0 358 0 0-256 0-256 0 0 0 0-358 0-358 0 0 256 0 256 0m-56 303c0 0 0-45 0-45 0 0-144 0-144 0 0 0 0 45 0 45 0 0 144 0 144 0m0-201c0 0 0-45 0-45 0 0-144 0-144 0 0 0 0 45 0 45 0 0 144 0 144 0"/>
<glyph unicode="&#34;" d="M399 395c0-15-8-31-24-49-17-18-33-35-50-51-17-16-25-29-25-39 0-10 8-23 25-39 17-16 33-32 50-50 16-17 24-34 24-49 0 0 0-61 0-61 0-11-14-24-44-37-29-13-62-20-99-20-37 0-70 7-99 20-30 13-44 26-44 37 0 0 0 61 0 61 0 15 8 32 24 49 17 18 33 34 50 50 17 16 25 29 25 39 0 10-8 23-25 39-17 16-33 33-50 51-16 18-24 34-24 49 0 0 0 61 0 61 0 11 14 23 44 36 30 13 63 20 99 20 36 0 69-7 99-20 30-13 44-25 44-36 0 0 0-61 0-61m-246 58c0 0-10-8-10-8-1-2 0-5 2-7 32-17 69-26 111-26 45 0 83 8 113 25 4 4 2 9-9 16-32 18-67 27-103 27-41 0-76-9-104-27m116-197c0 6 1 12 2 17 2 5 5 11 10 17 4 6 8 10 10 13 2 2 7 7 16 15 8 9 13 13 15 15 31 31 47 52 47 62 0 0 1 26 1 26-34-19-72-28-114-28-42 0-80 9-114 28 0 0 2-26 2-26 0-11 16-31 46-62 3-2 6-6 12-11 5-5 9-9 12-11 0 0 9-10 9-10 0 0 3-4 9-11 6-7 8-10 6-10-2 0-1-4 4-12 5-8 6-12 2-12 0-3 0-7-1-10 0-3-1-6-3-9-2-3-3-6-4-8-1-3-3-5-6-9 0 0-6-8-6-8 0 0-2-2-7-8-6-5-8-8-9-7 0 0-3-3-9-9-6-5-9-8-9-8-30-30-46-51-46-62 0 0 0-34 0-34 3 1 14 5 34 12 20 6 36 14 47 22 12 8 18 18 18 29 0 11 4 16 13 16 9 0 13-5 13-16 0-11 6-21 17-29 11-8 28-16 48-22 21-7 33-11 35-12 0 0 0 34 0 34 0 10-16 31-47 62-2 2-5 5-11 10-6 6-10 10-11 11-2 2-5 5-10 10-4 5-7 8-9 11-2 3-4 6-6 10-2 5-4 8-5 12 0 4-1 8-1 12"/>
<glyph unicode="&#47;" d="M512 155l0-91c0-8-3-14-8-19-5-6-12-8-19-8l-92 0c-7 0-14 2-19 8-6 5-8 11-8 19l0 91c0 8 2 15 8 20 5 5 12 8 19 8l28 0 0 55-147 0 0-55 28 0c7 0 14-3 19-8 5-5 8-12 8-20l0-91c0-8-3-14-8-19-5-6-12-8-19-8l-92 0c-7 0-14 2-19 8-5 5-8 11-8 19l0 91c0 8 3 15 8 20 5 5 12 8 19 8l28 0 0 55-147 0 0-55 28 0c7 0 14-3 19-8 6-5 8-12 8-20l0-91c0-8-2-14-8-19-5-6-12-8-19-8l-92 0c-7 0-14 2-19 8-5 5-8 11-8 19l0 91c0 8 3 15 8 20 5 5 12 8 19 8l28 0 0 55c0 10 3 18 11 25 7 8 16 11 25 11l147 0 0 55-28 0c-7 0-14 3-19 8-5 5-8 12-8 20l0 91c0 8 3 14 8 19 5 6 12 8 19 8l92 0c7 0 14-2 19-8 5-5 8-11 8-19l0-91c0-8-3-15-8-20-5-5-12-8-19-8l-28 0 0-55 147 0c9 0 18-3 25-11 8-7 11-15 11-25l0-55 28 0c7 0 14-3 19-8 5-5 8-12 8-20z"/>
<glyph unicode="&#58;" d="M512 128l0-37c0-5-2-9-5-12-4-4-8-6-13-6l-476 0c-5 0-9 2-13 6-3 3-5 7-5 12l0 37c0 5 2 9 5 13 4 3 8 5 13 5l476 0c5 0 9-2 13-5 3-4 5-8 5-13z m-110 110l0-37c0-5-2-9-5-13-4-3-8-5-13-5l-256 0c-5 0-9 2-13 5-3 4-5 8-5 13l0 37c0 5 2 9 5 13 4 3 8 5 13 5l256 0c5 0 9-2 13-5 3-4 5-8 5-13z m73 109l0-36c0-5-1-9-5-13-4-4-8-5-13-5l-402 0c-5 0-9 1-13 5-4 4-5 8-5 13l0 36c0 5 1 10 5 13 4 4 8 6 13 6l402 0c5 0 9-2 13-6 4-3 5-8 5-13z m-109 110l0-36c0-5-2-10-6-13-3-4-8-6-13-6l-182 0c-5 0-10 2-13 6-4 3-6 8-6 13l0 36c0 5 2 9 6 13 3 4 8 5 13 5l182 0c5 0 10-1 13-5 4-4 6-8 6-13z"/>
<glyph unicode="&#37;" d="M441 484l-370 0c-23 0-43-20-43-43l0-370c0-23 20-43 43-43l370 0c23 0 43 20 43 43l0 370c0 23-20 43-43 43z m-370-413l0 256 370 0 0-256z m29 228l86 0 0-86-86 0z m114 0l86 0 0-86-86 0z m114 0l85 0 0-86-85 0z m-228-114l86 0 0-85-86 0z m114 0l86 0 0-85-86 0z m114 0l85 0 0-85-85 0z"/>
<glyph unicode="&#75;" d="M253 492c65 1 121-22 167-67 46-45 71-100 72-165 1-65-23-120-68-167-45-47-100-72-165-73-65-1-120 23-167 68-47 45-71 100-72 165-1 65 21 120 67 167 46 47 101 71 166 72z m14-147c24 0 43 16 43 39 0 20-10 30-30 30-14 0-26-5-34-13-8-8-12-16-12-25-1-20 13-31 33-31z m-49-235c10 0 25 4 43 13 18 9 36 22 54 40l-9 12c-16-12-29-18-37-18-5 0-5 6-2 19l22 82c9 33 5 49-11 49-10 0-26-5-46-15-20-10-40-22-59-38l8-13c18 12 30 17 38 17 4 0 4-5 0-17l-18-78c-9-36-3-53 17-53z"/>
<glyph unicode="&#86;" d="M407 84l0-20-374 0 0 312 21 0 0 31-52 0 0-343c0-18 14-32 31-32l405 0 0 52z m-84 83l94 0 0 31-94 0z m-31 156l-156 0 0-156 156 0z m31-94l125 0 0 32-125 0z m-249 250l0-343c0-18 14-32 31-32l405 0 0 375z m405-343l-374 0 0 312 374 0z m-31 250l-312 0 0-32 312 0z m-125-94l125 0 0 31-125 0z"/>
<glyph unicode="&#52;" d="M213 484c118 0 214-78 214-173 0-95-96-173-214-173-11 0-22 1-33 2-46-45-99-53-152-55l0 12c29 13 52 39 52 68 0 4 0 8-1 12-48 31-79 80-79 134 0 95 96 173 213 173z m230-387c0-25 16-47 41-59l0-10c-46 1-88 8-128 48-9-2-19-2-29-2-42 0-81 11-113 31 65 0 125 20 171 58 24 18 42 40 55 65 14 26 20 54 20 83 0 5 0 9 0 14 32-27 52-63 52-103 0-47-27-88-69-115 0-4 0-7 0-10z"/>
<glyph unicode="&#55;" d="M432 381l-352 0c-44 0-80-36-80-80l0-90c0-44 36-80 80-80l352 0c44 0 80 36 80 80l0 90c0 44-36 80-80 80z"/>
<glyph unicode="&#42;" d="M347 128l0-37c0-5-1-9-5-12-4-4-8-6-13-6l-146 0c-5 0-9 2-13 6-4 3-5 7-5 12l0 37c0 5 1 9 5 13 4 3 8 5 13 5l18 0 0 110-18 0c-5 0-9 2-13 5-4 4-5 8-5 13l0 37c0 5 1 9 5 13 4 3 8 5 13 5l110 0c5 0 9-2 12-5 4-4 6-8 6-13l0-165 18 0c5 0 9-2 13-5 4-4 5-8 5-13z m-36 329l0-55c0-5-2-9-6-13-3-3-7-5-12-5l-74 0c-5 0-9 2-12 5-4 4-6 8-6 13l0 55c0 5 2 9 6 13 3 4 7 5 12 5l74 0c5 0 9-1 12-5 4-4 6-8 6-13z"/>
<glyph unicode="&#46;" d="M288 341l0 75c0 18-14 32-32 32-18 0-32-14-32-32l0-75-107 0 0-64 107 0 0-213 64 0 0 213 107 0 0 64z"/>
<glyph unicode="&#59;" d="M238 494l0-183c0-12-4-22-10-32-7-9-16-16-27-20l0-222c0-10-3-19-11-26-7-7-16-11-25-11l-37 0c-10 0-18 4-26 11-7 7-11 16-11 26l0 222c-10 4-19 11-26 20-7 10-10 20-10 32l0 183c0 5 2 9 5 13 4 3 8 5 13 5 5 0 9-2 13-5 4-4 5-8 5-13l0-119c0-5 2-9 6-13 3-4 8-5 13-5 5 0 9 1 13 5 3 4 5 8 5 13l0 119c0 5 2 9 5 13 4 3 8 5 13 5 5 0 10-2 13-5 4-4 6-8 6-13l0-119c0-5 1-9 5-13 4-4 8-5 13-5 5 0 9 1 13 5 3 4 5 8 5 13l0 119c0 5 2 9 6 13 3 3 7 5 12 5 5 0 10-2 13-5 4-4 6-8 6-13z m219 0l0-457c0-10-3-19-11-26-7-7-16-11-25-11l-37 0c-10 0-18 4-26 11-7 7-11 16-11 26l0 146-64 0c-2 0-4 1-6 3-2 1-3 4-3 6l0 229c0 25 9 46 27 64 18 18 40 27 65 27l73 0c5 0 9-2 13-5 3-4 5-8 5-13z"/>
</font>
</defs>
</svg>
